Bienvenido a mi post, esta vez te traigo para descargar 13 Assassins [DvdRIP] [2011][1Link] totalmente gratis espero lo disfrutes, este aporte fue enviado el April 28th, 2011 por lo que si es medio antiguo utiliza el buscador para encontrar algun post mas nuevo. 13 Assassins [DvdRIP] [2011][1Link] fue enviado a la categoria Peliculas mirala si es que quieres buscar mas cosas parecidas a las que vas a encontrar en este aporte, espero que te sea util y no olvides dejar un comentario eso me motiva a segir subiendo mas contenido todos los dias.

13 Assassins[DvdRIP][2011][1Link]

El film nos lleva hasta la era Shogun, donde un joven Lord viola y asesina resguardado por la impunidad ante la ley. Pero no contaba con los 13 asesinos, una fuerza secreta y temida, cada uno de ellos con una habilidad mortal que emprenderán la suicida misión de matarlo. Remake de Jusan-nin no shikaku (The Thirteen Assassins) de Eiichi Kudo.

Titulo: 13 Assassins
Idioma: Japones con subtitulos en español pegados al video
Formato: AVI
Calidad de imagen: Muy Buena

dijo:
General
Complete name : files/p-13a__Luke.avi
Format : AVI
Format/Info : Audio Video Interleave
File size : 844 MiB
Duration : 2h 5mn
Overall bit rate : 943 Kbps
Writing application : MEncoder 1.0rc2-4.2.4
Writing library : MPlayer

Video
ID : 0
Format : MPEG-4 Visual
Format profile : Simple@L1
Format settings, BVOP : No
Format settings, QPel : No
Format settings, GMC : No warppoints
Format settings, Matrix : Default (H.263)
Codec ID : DX50
Codec ID/Hint : DivX 5
Duration : 2h 5mn
Bit rate : 849 Kbps
Width : 624 pixels
Height : 256 pixels
Display aspect ratio : 2.40:1
Frame rate : 29.970 fps
Color space : YUV
Chroma subsampling : 4:2:0
Bit depth : 8 bits
Scan type : Progressive
Bits/(Pixel*Frame) : 0.177
Stream size : 760 MiB (90_)
Writing library : Lavc51.44.0

Audio
ID : 1
Format : MPEG Audio
Format version : Version 1
Format profile : Layer 3
Codec ID : 55
Codec ID/Hint : MP3
Duration : 2h 5mn
Bit rate mode : Constant
Bit rate : 80.0 Kbps
Channel(s) : 2 channels
Sampling rate : 44.1 KHz
Stream size : 71.6 MiB (8_)
Alignment : Aligned on interleaves
Interleave, duration : 26 ms (0.78 video frame)
Interleave, preload duration : 522 ms
Writing library : LAME3.98

http://www.fileserve.com/file/UZGArKj

O

http://www.uploadstation.com/file/hKwczR6


Llegaron Buscando


  • 13 assassins descargar gratis
  • descarga directa 13 asesinos
  • 13 asesinos dvdrip castellano
  • descargar 13 assassins avi
  • 13 asesinos mediafire
  • 13 assassins sub español MF
  • 13 assassins descarga directa
  • DESCARGAR 13 ASESINOS DVDRIP AVI 1 link
  • descargar 13 asesinos
  • descargar 13 asesinos dvdrip latino mega
  • 13 assassins mediafire

  • shogun assassin dvdrip divx español descagas directas

  • descargar 13 asesinos sub español en filestube
  • 13 asesinos descargar latino avi

Descargar 13 Assassins [DvdRIP] [2011][1Link] Gratis