Bienvenido a mi post, esta vez te traigo para descargar The Amazing Spider-Man (2012) [BDRip 1080p][Español Latino 5.1/Ingles DTS] totalmente gratis espero lo disfrutes, este aporte fue enviado el October 25th, 2012 por lo que si es medio antiguo utiliza el buscador para encontrar algun post mas nuevo. The Amazing Spider-Man (2012) [BDRip 1080p][Español Latino 5.1/Ingles DTS] fue enviado a la categoria Peliculas mirala si es que quieres buscar mas cosas parecidas a las que vas a encontrar en este aporte, espero que te sea util y no olvides dejar un comentario eso me motiva a segir subiendo mas contenido todos los dias.

Como la mayoría de los adolescentes de su edad, Peter está intentando descubrir quién es y cómo ha llegado a ser lo que es. En su viaje para atar los cabos de su pasado descubre un secreto que guardaba su padre, un secreto que finalmente dará forma a su destino como Spiderman.

Título: The Amazing Spider-Man
Título original: The Amazing Spider-Man
País:USA
Estreno en USA: 03/07/2012
Estreno en España: 06/07/2012
Productora: Columbia Pictures (Sony)
Director: Marc Webb
Guión: James Vanderbilt, Alvin Sargent
Reparto: Andrew Garfield, Emma Stone, Rhys Ifans, Sally Field, Martin Sheen, Denis Leary, Campbell Scott, Embeth Davidtz, Irrfan Khan, C. Thomas Howell
Calificación: No recomendada para menores de 7 años

 

General
Unique ID                        : 198477190418062131789322436349846065369 (0x9551510195288C95B653CAF8005390D9)
Complete name                    : The Amazing Spiderman 2012 BDRip 1080p Latino.mkv
Format                           : Matroska
Format version                   : Version 2
File size                        : 9.77 GiB
Duration                         : 2h 16mn
Overall bit rate                 : 10.3 Mbps
Movie name                       : wWw.ReleaseTV.Net - The Amazing Spiderman 2012 BDRip 1080p Latino By Chamako
Encoded date                     : UTC 2012-10-25 07:32:05
Writing application              : mkvmerge v4.4.0 ('Die Wiederkehr') built on Oct 31 2010 21:52:48
Writing library                  : libebml v1.0.0 + libmatroska v1.0.0

Video
ID                               : 1
Format                           : AVC
Format/Info                      : Advanced Video Codec
Format profile                   : High@L4.1
Format settings, CABAC           : Yes
Format settings, ReFrames        : 5 frames
Muxing mode                      : Header stripping
Codec ID                         : V_MPEG4/ISO/AVC
Duration                         : 2h 16mn
Bit rate                         : 8 370 Kbps
Width                            : 1 920 pixels
Height                           : 804 pixels
Display aspect ratio             : 2.40:1
Frame rate                       : 23.976 fps
Color space                      : YUV
Chroma subsampling               : 4:2:0
Bit depth                        : 8 bits
Scan type                        : Progressive
Bits/(Pixel*Frame)               : 0.226
Stream size                      : 7.77 GiB (80%)
Title                            : Chamako - The Amazing Spiderman 2012
Writing library                  : x264 core 128 r2216 198a7ea
Encoding settings                : cabac=1 / ref=5 / deblock=1:0:0 / analyse=0x3:0x113 / me=umh / subme=8 / psy=1 / psy_rd=1.00:0.00 / mixed_ref=1 / me_range=16 / chroma_me=1 / trellis=1 / 8x8dct=1 / cqm=0 / deadzone=21,11 / fast_pskip=1 / chroma_qp_offset=-2 / threads=12 / lookahead_threads=2 / sliced_threads=0 / nr=0 / decimate=1 / interlaced=0 / bluray_compat=0 / constrained_intra=0 / bframes=3 / b_pyramid=2 / b_adapt=2 / b_bias=0 / direct=3 / weightb=1 / open_gop=0 / weightp=2 / keyint=240 / keyint_min=24 / scenecut=40 / intra_refresh=0 / rc_lookahead=50 / rc=2pass / mbtree=1 / bitrate=8370 / ratetol=1.0 / qcomp=0.60 / qpmin=0 / qpmax=69 / qpstep=4 / cplxblur=20.0 / qblur=0.5 / ip_ratio=1.40 / aq=1:1.00
Language                         : English
Default                          : Yes
Forced                           : No

Audio #1
ID                               : 3
Format                           : AC-3
Format/Info                      : Audio Coding 3
Mode extension                   : CM (complete main)
Muxing mode                      : Header stripping
Codec ID                         : A_AC3
Duration                         : 2h 16mn
Bit rate mode                    : Constant
Bit rate                         : 384 Kbps
Channel(s)                       : 6 channels
Channel positions                : Front: L C R, Side: L R, LFE
Sampling rate                    : 48.0 KHz
Bit depth                        : 16 bits
Compression mode                 : Lossy
Stream size                      : 374 MiB (4%)
Title                            : Latino 5.1
Language                         : Spanish
Default                          : Yes
Forced                           : Yes

Audio #2
ID                               : 4
Format                           : DTS
Format/Info                      : Digital Theater Systems
Muxing mode                      : Header stripping
Codec ID                         : A_DTS
Duration                         : 2h 16mn
Bit rate mode                    : Constant
Bit rate                         : 1 510 Kbps
Channel(s)                       : 6 channels
Channel positions                : Front: L C R, Side: L R, LFE
Sampling rate                    : 48.0 KHz
Bit depth                        : 24 bits
Compression mode                 : Lossy
Delay relative to video          : 11ms
Stream size                      : 1.44 GiB (15%)
Title                            : English DTS
Language                         : English
Default                          : No
Forced                           : No

Text
ID                               : 2
Format                           : UTF-8
Codec ID                         : S_TEXT/UTF8
Codec ID/Info                    : UTF-8 Plain Text
Title                            : Spanish Completos
Language                         : Spanish
Default                          : No
Forced                           : No

Menu
00:00:00.000                     : en:00:00:00.000
00:07:45.924                     : en:00:07:45.924
00:14:39.670                     : en:00:14:39.670
00:22:57.543                     : en:00:22:57.543
00:32:58.226                     : en:00:32:58.226
00:41:25.066                     : en:00:41:25.066
00:48:42.503                     : en:00:48:42.503
00:55:10.933                     : en:00:55:10.933
01:03:17.293                     : en:01:03:17.293
01:12:29.011                     : en:01:12:29.011
01:17:51.750                     : en:01:17:51.750
01:24:38.949                     : en:01:24:38.949
01:34:04.556                     : en:01:34:04.556
01:42:59.548                     : en:01:42:59.548
01:52:16.355                     : en:01:52:16.355
02:00:52.912                     : en:02:00:52.912




ARCHIVO DE RECUPERACIÓN + 1 SFV DE COMPROBACIÓN DE RAR
Añadir el link al Jdownloader o MiPony, y empieza a descargar del host que mas te agrade
SERVIDORES DISPONIBLES

The Amazing Spider-Man (2012) [BDRip 1080p][Español Latino 5.1/Ingles DTS]

CONTRASEÑA: chamako (todo minusculas)

Si Algun link cae solo enviame un MP con el link del post y lo resubiré


Llegaron Buscando


  • spiderman 4 1080p latino

  • amazing spiderman 1080p latino putlocker

  • The Amazing SpiderMan 1080p Dual 5 1 Latino|Ingles

Descargar The Amazing Spider-Man (2012) [BDRip 1080p][Español Latino 5.1/Ingles DTS] Gratis